深影论坛

 找回密码
 新用户注册

QQ登录

只需一步,快速开始

扫一扫,访问微社区

查看: 20810|回复: 553

[战争] 紫日 [普通话] Purple.Sunset.2001.HDTV.1080P.x264.AAC-HQC 3.10 GiB

  [复制链接]
发表于 2016-2-3 08:40:12 | 显示全部楼层 |阅读模式


◎译  名 紫日   
◎片  名 Purple Sunset
◎年  代 2001
◎国  家 中国
◎类  别 战争
◎语  言 普通话
◎字  幕 N/A
◎IMDB评分 7.2/10 from 238 users  
◎IMDB链接 http://www.imdb.com/title/tt0303260/
◎文件格式 x264 + AAC
◎视频尺寸 1920x1080
◎文件大小 1CD 3.10 GiB
◎片  长 1h 39mn
◎导  演 冯小宁 Feng Xiaoning
◎主  演 前田知惠 Chie Maeda ...秋叶子
      安娜·捷尼拉洛娃 Anna Dzenilalova ...娜佳
      艾迪·伊戈尔 Eddie Eagle ...US DVD Trailer Voice
      富大龙 Dalong Fu
      王学伟 Xuewei Wang

                 
◎简  介

  影片讲述了第二次世界大战的最后时刻,苏军坦克冲破大兴安岭日军防线,途经一座集中营时解救出一名唯一的幸存者,苏军将他与一批伤员一同送往后方,但运送车误入日军防区,一场混乱后,仅剩三人逃入茫茫林海……

  在中、俄、日3个角色上展开了惊心动魄的故事,3个人语言不通、相互敌对的人之间充满了戒备,但他们在险恶中,又是靠相互帮助最终走出森林,并无意中得到了战争已经结束的消息,当他们怀着生活的希望奔向林外时,看到了一场恐怖的大屠杀……

幕后制作

该片是著名导演冯小宁“战争与和平”三部曲的收山之作。影片围绕中、俄、日三个语言不通的人物所经历的纠葛展开,三个主人公因、社会、语言、文化背景不同,促使他们进行沟通的是三人所共同面对的生存环境,因此影片的对白非常精练。在片中,三位扮演不同民族人物的演员都是冯小宁启用的新人。该片获第21届美国夏威夷国际电影节最佳影片大奖。

获奖记录

中国电影金鸡奖(2001;第21届)
获奖
·最佳摄影冯小宁 Feng Xiaoning  

上海国际电影节(2001;第5届)
提名
·金爵奖-最佳影片冯小宁 Feng Xiaoning
  • General
  • Unique ID                      : 253207213524363840345918334103785728726 (0xBE7DEF7AB5888E0F80B8D2CAF70A6AD6)
  • Complete name                  : E:\迅雷下载\[紫日]Purple.Sunset.2001.HDTV.1080P.x264.AAC-HQC.mkv
  • Format                         : Matroska
  • Format version                 : Version 4 / Version 2
  • File size                      : 3.10 GiB
  • Duration                       : 1h 39mn
  • Overall bit rate               : 4 480 Kbps
  • Encoded date                   : UTC 2015-05-18 10:08:25
  • Writing application            : mkvmerge v7.7.0 ('Six Voices') 32bit built on Feb 28 2015 23:23:00
  • Writing library                : libebml v1.3.1 + libmatroska v1.4.2
  • IsTruncated                    : Yes
  • Video
  • ID                             : 1
  • Format                         : AVC
  • Format/Info                    : Advanced Video Codec
  • Format profile                 : High@L4
  • Format settings, CABAC         : Yes
  • Format settings, ReFrames      : 4 frames
  • Codec ID                       : V_MPEG4/ISO/AVC
  • Duration                       : 1h 39mn
  • Bit rate                       : 4 347 Kbps
  • Width                          : 1 920 pixels
  • Height                         : 1 080 pixels
  • Display aspect ratio           : 16:9
  • Frame rate mode                : Constant
  • Frame rate                     : 25.000 fps
  • Color space                    : YUV
  • Chroma subsampling             : 4:2:0
  • Bit depth                      : 8 bits
  • Scan type                      : MBAFF
  • Scan type, store method        : Interleaved fields
  • Scan order                     : Top Field First
  • Bits/(Pixel*Frame)             : 0.084
  • Stream size                    : 3.01 GiB (97%)
  • Writing library                : x264 core 144 r2525+52 a9a0b2b xiaowan [8-bit@all X86]
  • Encoding settings              : cabac=1 / ref=4 / deblock=1:1:1 / analyse=0x3:0x133 / me=umh / subme=10 / psy=1 / fade_compensate=0.00 / psy_rd=0.30:0.00 / mixed_ref=1 / me_range=24 / chroma_me=1 / trellis=2 / 8x8dct=1 / cqm=0 / deadzone=21,11 / fast_pskip=1 / chroma_qp_offset=-2 / threads=6 / lookahead_threads=1 / sliced_threads=0 / nr=0 / decimate=1 / interlaced=tff / bluray_compat=0 / constrained_intra=0 / fgo=0 / bframes=3 / b_pyramid=2 / b_adapt=2 / b_bias=0 / direct=3 / weightb=1 / open_gop=0 / weightp=0 / keyint=250 / keyint_min=1 / scenecut=60 / intra_refresh=0 / rc_lookahead=60 / rc=crf / mbtree=1 / crf=21.0000 / qcomp=0.50 / qpmin=0:0:0 / qpmax=69:69:69 / qpstep=4 / ip_ratio=1.40 / aq=2:0.80 / aq-sensitivity=10.00 / aq-factor=1.00:1.00:1.00 / aq2=0 / aq3=0
  • Default                        : Yes
  • Forced                         : No
  • Audio
  • ID                             : 2
  • Format                         : AAC
  • Format/Info                    : Advanced Audio Codec
  • Format profile                 : LC
  • Codec ID                       : A_AAC
  • Duration                       : 1h 39mn
  • Bit rate                       : 132 Kbps
  • Channel(s)                     : 2 channels
  • Channel positions              : Front: L R
  • Sampling rate                  : 48.0 KHz
  • Frame rate                     : 46.875 fps (1024 spf)
  • Compression mode               : Lossy
  • Delay relative to video        : 9ms
  • Stream size                    : 92.8 MiB (3%)
  • Default                        : Yes
  • Forced                         : No


复制代码













游客,如果您要查看本帖隐藏内容请回复


本帖子中包含更多资源

您需要 登录 才可以下载或查看,没有帐号?新用户注册

x
回复

使用道具 举报

发表于 2016-2-3 08:51:05 | 显示全部楼层
谢谢楼主共享,好电影必须收藏
回复 支持 反对

使用道具 举报

发表于 2016-2-3 08:55:24 | 显示全部楼层
hao !!!!!!!!!!!!!!!!!!!!!
回复

使用道具 举报

发表于 2016-2-3 08:58:32 | 显示全部楼层
谢谢楼主分享
回复 支持 反对

使用道具 举报

发表于 2016-2-3 09:00:26 | 显示全部楼层
居然来自中央6,经典的电影。
回复 支持 反对

使用道具 举报

发表于 2016-2-3 09:08:12 | 显示全部楼层
我要这个经典片子
回复 支持 反对

使用道具 举报

发表于 2016-2-3 09:12:27 | 显示全部楼层
很好看的样子
回复 支持 反对

使用道具 举报

发表于 2016-2-3 09:13:42 | 显示全部楼层
看看怎么样
回复 支持 反对

使用道具 举报

发表于 2016-2-3 09:16:30 | 显示全部楼层
好像以前看过,这个是洗版CCTV6的版本么?
回复 支持 反对

使用道具 举报

发表于 2016-2-3 09:17:12 | 显示全部楼层
好像以前看过,这个是洗版CCTV6的版本么?
回复 支持 反对

使用道具 举报

发表于 2016-2-3 09:23:53 | 显示全部楼层
thanks a lot.
回复 支持 反对

使用道具 举报

发表于 2016-2-3 09:34:26 | 显示全部楼层
小时候看一次哭一次的好电影。。必须下了。。
回复 支持 反对

使用道具 举报

发表于 2016-2-3 09:47:40 | 显示全部楼层
谢谢楼主共享
回复 支持 反对

使用道具 举报

发表于 2016-2-3 09:48:34 | 显示全部楼层
被剧情吸引,谢谢分享
回复 支持 反对

使用道具 举报

发表于 2016-2-3 09:52:13 | 显示全部楼层
感谢分享!
回复

使用道具 举报

发表于 2016-2-3 09:53:46 | 显示全部楼层
导演冯小宁
回复 支持 反对

使用道具 举报

发表于 2016-2-3 10:05:54 | 显示全部楼层
da kai kan kan
回复 支持 反对

使用道具 举报

发表于 2016-2-3 10:06:54 | 显示全部楼层
看过N次。。。电影频道可爱放了以前
回复 支持 反对

使用道具 举报

发表于 2016-2-3 10:10:54 | 显示全部楼层
不错,谢谢分享
回复 支持 反对

使用道具 举报

发表于 2016-2-3 10:12:04 | 显示全部楼层
没看过补看下,感谢分享
回复 支持 反对

使用道具 举报

发表于 2016-2-3 10:16:54 | 显示全部楼层
谢谢分享!!!!!!!!!!
回复

使用道具 举报

发表于 2016-2-3 10:20:57 | 显示全部楼层
多谢楼主分享!
回复 支持 反对

使用道具 举报

发表于 2016-2-3 10:22:53 | 显示全部楼层
谢谢楼主分享.谢谢.
回复 支持 反对

使用道具 举报

发表于 2016-2-3 10:23:08 | 显示全部楼层
紫日 [普通话] Purple.Sunset.2001
回复 支持 反对

使用道具 举报

发表于 2016-2-3 10:31:39 | 显示全部楼层
没有看过。不过评分很高
回复 支持 反对

使用道具 举报

发表于 2016-2-3 10:33:29 | 显示全部楼层
经典国产片还是值得看看
回复 支持 反对

使用道具 举报

发表于 2016-2-3 10:37:23 | 显示全部楼层
谢谢楼主分享
回复 支持 反对

使用道具 举报

发表于 2016-2-3 10:49:28 | 显示全部楼层
谢谢楼主分享
回复 支持 反对

使用道具 举报

发表于 2016-2-3 10:55:37 | 显示全部楼层
鬼吹灯之寻龙诀 [普通话/中英字幕]WEB

评分

参与人数 1深影会劵 -12 收起 理由
0766527400 -12 打几个字会死?

查看全部评分

回复 支持 反对

使用道具 举报

发表于 2016-2-3 10:59:54 | 显示全部楼层
感谢楼主分享!!!!
回复 支持 反对

使用道具 举报

您需要登录后才可以回帖 登录 | 新用户注册

本版积分规则

联系我们|小黑屋|深影论坛   

GMT+8, 2017-11-23 09:39 , Processed in 0.043282 second(s), 42 queries , Gzip On, Memcache On.

Powered by Discuz! X3.2

© 2001-2013 Comsenz Inc.

快速回复 返回顶部 返回列表